Ratatouille | 2007 | Animación | BDRemux.1080p.AVC.m2ts | Eng.LPCM/Esp.DTS/Esp.Varios.AC3 | 27.7 GB

Post

Comments Off   |   Flux


Título original Ratatouille
Año 2007
Duración 110 min.
País
Director Brad Bird
Guión Brad Bird (Historia: Jan Pinkava, Jim Capobianco, Brad Bird)
Música Michael Giacchino
Fotografía Animation
Reparto Animation
Productora Pixar Animation Studios / Walt Disney Pictures
Género Animación. Comedia. Infantil | Cocina. Roedores. Cine familiar

Premios
2007: Oscar: Mejor largometraje de animación. 5 nominaciones
2007: Globo de Oro: Mejor filme de animación
2007: Premios BAFTA: Mejor largometraje de animación
2007: Premios Annie: 9 premios, incluyendo Mejor película. 13 nominaciones
2007: National Board of Review: Mejor largometraje de animación
2007: Festival de Toronto: Mejor Mejor largometraje de animación
2007: Asociación de Críticos de Los Angeles: Mejor largometraje de animación
2007: American Film Institute (AFI): Top 10 – Mejores películas del año
2007: Critics’ Choice Awards: Mejor largometraje de animación
2007: Asociación de Críticos de Chicago: Mejor película de animación

Remy es una simpática rata que sueña con convertirse en un gran chef francés a pesar de la oposición de su familia y del problema evidente que supone ser una rata en una profesión que detesta a los roedores. El destino lleva a Remy a las alcantarillas de París, donde su situación no puede ser mejor, ya que se encuentra justo debajo de un restaurante que se ha hecho famoso gracias a Auguste Gusteau, una estrella de la nouvelle cuisine. A pesar del peligro que representa ser un visitante poco común (y desde luego nada deseado) en los fogones de un exquisito restaurante francés, la pasión de Remy por la cocina pone patas arriba el mundo culinario parisino en una trepidante y emocionante aventura.

Hace mucho tiempo que no me pasaba lo que me pasó en el cine esta tarde. Tengo 32 años, pero durante dos horas, he vuelto a ser niño. La responsable de esto es la película RATATOUILLE. Nunca he sido fanático del cine de animación, pero debo reconocer que cuando una película tiene los argumentos, sentimientos, humor y humanidad que nos presenta Ratatouille, es muy difícil obviarla. Visualmente, tiene los argumentos para recibir el Oscar inmediatamente, para que esperar hasta febrero??. La ratita Remy, tiene un nivel de ternura pocas veces visto en los filmes de Pixar. La historia, está matizada con toques de humor, sentimiento y nos deja valiosas enseñanzas. Insisto en el espectáculo visual que nos presenta Pixar, con unos paisajes parisinos que parecen filmados en alta resolución. La historia gustará tanto a niños como adultos. Y si esos adultos que disfruten de esta joya de la animación se dan el tiempo de empatizar con los personajes, que no les sorprenda encontrarse en algún instante con unas lágrimas que urgen por salir. (como me pasó a mí).
Ratatouille es una exquisitez cinematográfica.

Código:

Complete name                            : Ratatouille (2007) – AbueIo BDRemux.m2ts
Format                                  : BDAV
Format/Info                              : Blu-ray Video
File size                                : 27.7 GiB
Duration                                : 1h 50mn
Overall bit rate mode                    : Variable
Overall bit rate                        : 35.8 Mbps
Maximum Overall bit rate                : 35.5 Mbps

Video
ID                                      : 4113 (0x1011)
Menu ID                                  : 1 (0x1)
Format                                  : AVC
Format/Info                              : Advanced Video Codec
Format profile                          : High@L4.1
Format settings, CABAC                  : Yes
Format settings, ReFrames                : 4 frames
Codec ID                                : 27
Duration                                : 1h 50mn
Bit rate mode                            : Variable
Bit rate                                : 24.5 Mbps
Maximum bit rate                        : 34.0 Mbps
Width                                    : 1 920 pixels
Height                                  : 1 080 pixels
Display aspect ratio                    : 16:9
Frame rate                              : 23.976 fps
Standard                                : NTSC
Color space                              : YUV
Chroma subsampling                      : 4:2:0
Bit depth                                : 8 bits
Scan type                                : Progressive
Bits/(Pixel*Frame)                      : 0.492
Stream size                              : 18.9 GiB (68%)
Color primaries                          : BT.709
Transfer characteristics                : BT.709
Matrix coefficients                      : BT.709

Audio #1
ID                                      : 4352 (0x1100)
Menu ID                                  : 1 (0x1)
Format                                  : DTS
Format/Info                              : Digital Theater Systems
Mode                                    : 16
Format settings, Endianness              : Big
Codec ID                                : 130
Duration                                : 1h 50mn
Bit rate mode                            : Constant
Bit rate                                : 1 509 Kbps
Channel(s)                              : 6 channels
Channel positions                        : Front: L C R, Side: L R, LFE
Sampling rate                            : 48.0 KHz
Bit depth                                : 24 bits
Compression mode                        : Lossy
Stream size                              : 1.17 GiB (4%)
Language                                : Spanish Castellano

Audio #2
ID                                      : 4353 (0x1101)
Menu ID                                  : 1 (0x1)
Format                                  : PCM
Format settings, Endianness              : Big
Format settings, Sign                    : Signed
Muxing mode                              : Blu-ray
Codec ID                                : 128
Duration                                : 1h 50mn
Bit rate mode                            : Constant
Bit rate                                : 4 608 Kbps
Channel(s)                              : 6 channels
Channel positions                        : Front: L C R, Side: L R, LFE
Sampling rate                            : 48.0 KHz
Bit depth                                : 16 bits
Stream size                              : 3.56 GiB (13%)
Language                                : English

Audio #3
ID                                      : 4354 (0x1102)
Menu ID                                  : 1 (0x1)
Format                                  : AC-3
Format/Info                              : Audio Coding 3
Mode extension                          : CM (complete main)
Format settings, Endianness              : Big
Codec ID                                : 129
Duration                                : 1h 50mn
Bit rate mode                            : Constant
Bit rate                                : 640 Kbps
Channel(s)                              : 6 channels
Channel positions                        : Front: L C R, Side: L R, LFE
Sampling rate                            : 48.0 KHz
Bit depth                                : 16 bits
Compression mode                        : Lossy
Stream size                              : 506 MiB (2%)
Language                                : English

Audio #4
ID                                      : 4355 (0x1103)
Menu ID                                  : 1 (0x1)
Format                                  : AC-3
Format/Info                              : Audio Coding 3
Mode extension                          : CM (complete main)
Format settings, Endianness              : Big
Codec ID                                : 129
Duration                                : 1h 50mn
Bit rate mode                            : Constant
Bit rate                                : 640 Kbps
Channel(s)                              : 6 channels
Channel positions                        : Front: L C R, Side: L R, LFE
Sampling rate                            : 48.0 KHz
Bit depth                                : 16 bits
Compression mode                        : Lossy
Stream size                              : 506 MiB (2%)
Language                                : Norwegian

Audio #5
ID                                      : 4356 (0x1104)
Menu ID                                  : 1 (0x1)
Format                                  : AC-3
Format/Info                              : Audio Coding 3
Mode extension                          : CM (complete main)
Format settings, Endianness              : Big
Codec ID                                : 129
Duration                                : 1h 50mn
Bit rate mode                            : Constant
Bit rate                                : 640 Kbps
Channel(s)                              : 6 channels
Channel positions                        : Front: L C R, Side: L R, LFE
Sampling rate                            : 48.0 KHz
Bit depth                                : 16 bits
Compression mode                        : Lossy
Stream size                              : 506 MiB (2%)
Language                                : Spanish Castellano

Audio #6
ID                                      : 4357 (0x1105)
Menu ID                                  : 1 (0x1)
Format                                  : AC-3
Format/Info                              : Audio Coding 3
Mode extension                          : CM (complete main)
Format settings, Endianness              : Big
Codec ID                                : 129
Duration                                : 1h 50mn
Bit rate mode                            : Constant
Bit rate                                : 640 Kbps
Channel(s)                              : 6 channels
Channel positions                        : Front: L C R, Side: L R, LFE
Sampling rate                            : 48.0 KHz
Bit depth                                : 16 bits
Compression mode                        : Lossy
Stream size                              : 506 MiB (2%)
Language                                : Danish

Audio #7
ID                                      : 4358 (0x1106)
Menu ID                                  : 1 (0x1)
Format                                  : AC-3
Format/Info                              : Audio Coding 3
Mode extension                          : CM (complete main)
Format settings, Endianness              : Big
Codec ID                                : 129
Duration                                : 1h 50mn
Bit rate mode                            : Constant
Bit rate                                : 640 Kbps
Channel(s)                              : 6 channels
Channel positions                        : Front: L C R, Side: L R, LFE
Sampling rate                            : 48.0 KHz
Bit depth                                : 16 bits
Compression mode                        : Lossy
Stream size                              : 506 MiB (2%)
Language                                : Catalan

Audio #8
ID                                      : 4359 (0x1107)
Menu ID                                  : 1 (0x1)
Format                                  : AC-3
Format/Info                              : Audio Coding 3
Mode extension                          : CM (complete main)
Format settings, Endianness              : Big
Codec ID                                : 129
Duration                                : 1h 50mn
Bit rate mode                            : Constant
Bit rate                                : 192 Kbps
Channel(s)                              : 2 channels
Channel positions                        : Front: L R
Sampling rate                            : 48.0 KHz
Bit depth                                : 16 bits
Compression mode                        : Lossy
Stream size                              : 152 MiB (1%)
Language                                : Norwegian

Audio #9
ID                                      : 4360 (0x1108)
Menu ID                                  : 1 (0x1)
Format                                  : AC-3
Format/Info                              : Audio Coding 3
Mode extension                          : CM (complete main)
Format settings, Endianness              : Big
Codec ID                                : 129
Duration                                : 1h 50mn
Bit rate mode                            : Constant
Bit rate                                : 192 Kbps
Channel(s)                              : 2 channels
Channel positions                        : Front: L R
Sampling rate                            : 48.0 KHz
Bit depth                                : 16 bits
Compression mode                        : Lossy
Stream size                              : 152 MiB (1%)
Language                                : Danish

Audio #10
ID                                      : 4361 (0x1109)
Menu ID                                  : 1 (0x1)
Format                                  : AC-3
Format/Info                              : Audio Coding 3
Mode extension                          : CM (complete main)
Format settings, Endianness              : Big
Codec ID                                : 129
Duration                                : 1h 50mn
Bit rate mode                            : Constant
Bit rate                                : 192 Kbps
Channel(s)                              : 2 channels
Channel positions                        : Front: L R
Sampling rate                            : 48.0 KHz
Bit depth                                : 16 bits
Compression mode                        : Lossy
Stream size                              : 152 MiB (1%)
Language                                : Spanish

Text #1
ID                                      : 4608 (0x1200)
Menu ID                                  : 1 (0x1)
Format                                  : PGS
Codec ID                                : 144
Language                                : English

Text #2
ID                                      : 4609 (0x1201)
Menu ID                                  : 1 (0x1)
Format                                  : PGS
Codec ID                                : 144
Language                                : English

Text #3
ID                                      : 4610 (0x1202)
Menu ID                                  : 1 (0x1)
Format                                  : PGS
Codec ID                                : 144
Language                                : Norwegian

Text #4
ID                                      : 4611 (0x1203)
Menu ID                                  : 1 (0x1)
Format                                  : PGS
Codec ID                                : 144
Language                                : Norwegian

Text #5
ID                                      : 4612 (0x1204)
Menu ID                                  : 1 (0x1)
Format                                  : PGS
Codec ID                                : 144
Language                                : Danish

Text #6
ID                                      : 4613 (0x1205)
Menu ID                                  : 1 (0x1)
Format                                  : PGS
Codec ID                                : 144
Language                                : Danish

Text #7
ID                                      : 4614 (0x1206)
Menu ID                                  : 1 (0x1)
Format                                  : PGS
Codec ID                                : 144
Language                                : Spanish

Text #8
ID                                      : 4615 (0x1207)
Menu ID                                  : 1 (0x1)
Format                                  : PGS
Codec ID                                : 144
Delay relative to video                  : 5s 255ms
Language                                : English

Links de 125 Mb
Intercambiables
Uploaded TusFiles 1Fichier

Archivos Totales: 254
238 Archivos .RAR de 125 Mb + 1 Archivo .RAR de 17.3 Mb
15Archivos de Recuperación .REV (Sólo Alojados en Uploaded)
5% Registro de Recuperación en cada archivo .rar
Cortados con: WINRAR 5

Por favor, abre tu jdownloader ANTES de ir al link de enlace.
Los Enlaces sólo permiten la opción Click N’ Load. Por lo tanto ya sabéis que sólo podéis usar o bien Jdownloader, Jdownloader 2; (mi consejo particular) o bien el Mipony.

NECESITARÁS WINRAR 5 PARA DESCOMPRIMIR

———–

INSTALAR WINRAR 5 EN MAC OX: http://pastebin.com/UneHD1bf



Código:

https://binbox.io/eKe4l#xZMmDgee

En 1Fichier están todos los rar excepto dos.
Usa Uploaded o TusFiles para bajártelos por favor.
Los archivos de recuperación REV sólo están alojados en Uploaded.
Muchas gracias.

Dale al botón de gracias o haz un comentario para mantener vivo el hilo.

Por favor, si hay problemas con los links, enviadme un mensaje privado. Es más rápido para tí, y para mí.
Muchas gracias.